HWZ Forums

Login Register FAQ Mark Forums Read

Digital TV (DVB T2) in Singapore [consolidated]

Like Tree190Likes
Closed Thread
 
LinkBack Thread Tools
Old 28-08-2014, 12:19 AM   #2791
Master Member
 
Join Date: Sep 2000
Posts: 3,265
It's digital huh? Plugs in using HDMI?
Err, dun quite understand ur question. Can u rephrase pls?
hoonming is offline  
Old 28-08-2014, 12:38 AM   #2792
Master Member
 
Join Date: Jan 2007
Posts: 2,728
Could it be point no. 1 below?
nope doesnt work... mine is alr ntfs. Anyone experiencing the same problem with Draco recorder? Max recording time is only 2 hours....
xxxjhxxx is offline  
Old 28-08-2014, 09:03 AM   #2793
Senior Mentor
 
LxIxVxE's Avatar
 
Join Date: Nov 2000
Posts: 318,642
free access or encrypted~?
just tried
it's free access
__________________
230 330 630 642 660 980 982 3602 3635 3655 4400 5220 5281 6221 6281 6285 6290
DD Cine/DuoFlex C2/T2
LxIxVxE is offline  
Old 28-08-2014, 09:16 AM   #2794
Moderator
 
sunsetbay's Avatar
 
Join Date: Jul 2000
Posts: 42,822
just tried
it's free access
song man~! all DVB-C users no need external antenna liao~! go home will try tuning~!

MDA shld hv promote DVB-C TV instead of DVB-T2 TV~ tio pwned~
__________________
۩₪₪₪₪₪₪₪₪₪₪₪₪₪₪₪₪₪₪₪₪₪₪₪۩

sunsetbay is offline  
Old 28-08-2014, 09:26 AM   #2795
Senior Mentor
 
LxIxVxE's Avatar
 
Join Date: Nov 2000
Posts: 318,642
song man~! all DVB-C users no need external antenna liao~! go home will try tuning~!

MDA shld hv promote DVB-C TV instead of DVB-T2 TV~ tio pwned~
HD5 have to stick to old one
981 cannot use

anyway, Starhub HD8 seems to be lower in bitrate than original T2

Overall bit rate mode : Variable
Overall bit rate : 7 216 Kbps

Video
ID : 5960 (0x1748)
Menu ID : 154 (0x9A)
Format : AVC
Format/Info : Advanced Video Codec
Format profile : High@L4.0
Format settings, CABAC : Yes
Format settings, ReFrames : 4 frames
Codec ID : 27
Duration : 1mn 56s
Bit rate : 6 278 Kbps
Width : 1 920 pixels
Height : 1 080 pixels
Display aspect ratio : 16:9
Frame rate : 25.000 fps
Standard : Component
Color space : YUV
Chroma subsampling : 4:2:0
Bit depth : 8 bits
Scan type : MBAFF
Bits/(Pixel*Frame) : 0.121
Stream size : 87.0 MiB (86%)
Color primaries : BT.709
Transfer characteristics : BT.709
Matrix coefficients : BT.709

Audio #1
ID : 5961 (0x1749)
Menu ID : 154 (0x9A)
Format : AC-3
Format/Info : Audio Coding 3
Mode extension : CM (complete main)
Format settings, Endianness : Big
Codec ID : 6
Duration : 1mn 56s
Bit rate mode : Constant
Bit rate : 384 Kbps
Channel(s) : 6 channels
Channel positions : Front: L C R, Side: L R, LFE
Sampling rate : 48.0 KHz
Bit depth : 16 bits
Compression mode : Lossy
Delay relative to video : -904ms
Stream size : 5.35 MiB (5%)
Language : Chinese

Audio #2
ID : 5962 (0x174A)
Menu ID : 154 (0x9A)
Format : MPEG Audio
Format version : Version 1
Format profile : Layer 2
Codec ID : 3
Duration : 1mn 56s
Bit rate mode : Constant
Bit rate : 192 Kbps
Channel(s) : 2 channels
Sampling rate : 48.0 KHz
Compression mode : Lossy
Delay relative to video : -936ms
Stream size : 2.68 MiB (3%)
__________________
230 330 630 642 660 980 982 3602 3635 3655 4400 5220 5281 6221 6281 6285 6290
DD Cine/DuoFlex C2/T2
LxIxVxE is offline  
Old 28-08-2014, 10:01 AM   #2796
Moderator
 
sunsetbay's Avatar
 
Join Date: Jul 2000
Posts: 42,822
HD5 have to stick to old one
981 cannot use

anyway, Starhub HD8 seems to be lower in bitrate than original T2

Overall bit rate mode : Variable
Overall bit rate : 7 216 Kbps

Video
ID : 5960 (0x1748)
Menu ID : 154 (0x9A)
Format : AVC
Format/Info : Advanced Video Codec
Format profile : High@L4.0
Format settings, CABAC : Yes
Format settings, ReFrames : 4 frames
Codec ID : 27
Duration : 1mn 56s
Bit rate : 6 278 Kbps
Width : 1 920 pixels
Height : 1 080 pixels
Display aspect ratio : 16:9
Frame rate : 25.000 fps
Standard : Component
Color space : YUV
Chroma subsampling : 4:2:0
Bit depth : 8 bits
Scan type : MBAFF
Bits/(Pixel*Frame) : 0.121
Stream size : 87.0 MiB (86%)
Color primaries : BT.709
Transfer characteristics : BT.709
Matrix coefficients : BT.709

Audio #1
ID : 5961 (0x1749)
Menu ID : 154 (0x9A)
Format : AC-3
Format/Info : Audio Coding 3
Mode extension : CM (complete main)
Format settings, Endianness : Big
Codec ID : 6
Duration : 1mn 56s
Bit rate mode : Constant
Bit rate : 384 Kbps
Channel(s) : 6 channels
Channel positions : Front: L C R, Side: L R, LFE
Sampling rate : 48.0 KHz
Bit depth : 16 bits
Compression mode : Lossy
Delay relative to video : -904ms
Stream size : 5.35 MiB (5%)
Language : Chinese

Audio #2
ID : 5962 (0x174A)
Menu ID : 154 (0x9A)
Format : MPEG Audio
Format version : Version 1
Format profile : Layer 2
Codec ID : 3
Duration : 1mn 56s
Bit rate mode : Constant
Bit rate : 192 Kbps
Channel(s) : 2 channels
Sampling rate : 48.0 KHz
Compression mode : Lossy
Delay relative to video : -936ms
Stream size : 2.68 MiB (3%)
they change to AC3 audio~? to me its easier to edit cos many of the editors got problem loading AAC+~
__________________
۩₪₪₪₪₪₪₪₪₪₪₪₪₪₪₪₪₪₪₪₪₪₪₪۩

sunsetbay is offline  
Old 28-08-2014, 10:13 AM   #2797
Member
 
Join Date: Aug 2000
Posts: 245
anybody tested dvbt2 signal in sengkang area?
gohkm is offline  
Old 28-08-2014, 01:10 PM   #2798
Banned
 
Join Date: Jan 2013
Posts: 4,251
Can't wait to go home and watch Channel 8 HD on StarHub!
chakuman is offline  
Old 28-08-2014, 01:24 PM   #2799
Honorary Member
 
Kiwi8's Avatar
 
Join Date: May 2001
Posts: 105,706
What's the raw frequency of HD8 ah?
__________________
No mercy for the despicable IB scums. We must take the offensive against them.

Mourning Singapore democracy's death due to the 2017 presidential election farce.





PM me if you require Keppel Electric referral code.
Kiwi8 is offline  
Old 28-08-2014, 01:27 PM   #2800
Senior Member
 
Join Date: Jul 2010
Posts: 538
What's the raw frequency of HD8 ah?
Should be 51400
b00mxer is offline  
Old 28-08-2014, 01:48 PM   #2801
Senior Member
 
AnDyLe0's Avatar
 
Join Date: Apr 2006
Posts: 2,242
they change to AC3 audio~? to me its easier to edit cos many of the editors got problem loading AAC+~
just like what we have guessed long time ago in this thread... sh delay HD8 because need to transcode audio format to Dolby Digital 5.1... i think this is better as older HDTV (dvb-t) can support the audio codec.
__________________
Luv`N`Peace
AnDyLe0 is offline  
Old 28-08-2014, 02:31 PM   #2802
Honorary Member
 
Kiwi8's Avatar
 
Join Date: May 2001
Posts: 105,706
Should be 51400
I see... with HD5 on 370Mhz, HD8 on 514Mhz, CHU (and the other SD channels except Okto) on 642Mhz, need more than a dual tuner liao.
__________________
No mercy for the despicable IB scums. We must take the offensive against them.

Mourning Singapore democracy's death due to the 2017 presidential election farce.





PM me if you require Keppel Electric referral code.
Kiwi8 is offline  
Old 28-08-2014, 06:53 PM   #2803
Senior Member
 
harry1990's Avatar
 
Join Date: Aug 2009
Posts: 880
Finally SuriaHD, Channel 8 HD and Vasantham HD is available on Starhub Cable TV.
__________________
Dick Lee is a legend of all the song he needs to know.
harry1990 is offline  
Old 28-08-2014, 06:59 PM   #2804
Honorary Member
 
Kiwi8's Avatar
 
Join Date: May 2001
Posts: 105,706
Finally SuriaHD, Channel 8 HD and Vasantham HD is available on Starhub Cable TV.
Yah I notice they are all on the same frequency 514Mhz so a single tuner can capture all 3 HD channels. It goes to show the bandwidth that's available in one DVB-C frequency.
__________________
No mercy for the despicable IB scums. We must take the offensive against them.

Mourning Singapore democracy's death due to the 2017 presidential election farce.





PM me if you require Keppel Electric referral code.
Kiwi8 is offline  
Old 28-08-2014, 07:03 PM   #2805
Senior Member
 
Join Date: Jul 2010
Posts: 538
Yah I notice they are all on the same frequency 514Mhz so a single tuner can capture all 3 HD channels. It goes to show the bandwidth that's available in one DVB-C frequency.
I noticed CH 981 is also in this frequency if I'm not wrong this is DVB-T2's Channel 5 (HD) but encrypted.
b00mxer is offline  
Closed Thread
Important Forum Advisory Note
This forum is moderated by volunteer moderators who will react only to members' feedback on posts. Moderators are not employees or representatives of HWZ. Forum members and moderators are responsible for their own posts.

Please refer to our Terms of Service for more information.


Thread Tools

Posting Rules

Smilies are On
[IMG] code is On
HTML code is Off
Trackbacks are Off
Pingbacks are Off
Refbacks are On